Skip to main content

Bodega Live at Ropeadope Stage - Allgood Festival on 2008-07-11

by Bodega



Bodega
July 11, 2008
Ropeadope Stage - Allgood Festival
Marvin's Mountain
Masontown WV

080711141025 bodega pt1.pjt
080711151230 bodega pt2.pjt

Recorded by Peter W. King for Ropeadope

*** THIS IS A 16-BIT FILESET INTENDED FOR AUDIO CD ***

SOURCE 1: DSBD > busman t-mod edirol r4 (24/96)
SOURCE 2: mbho 603a/ka200n (cardioid, ORTF) > sound devices mp2 > busman t-mod edirol r4 (24/96)
PROCESSING: vegas 6.0 (track alignment, rendering final mix to 24/48) > soundforge 8.0 (tracking, fades, resample, dither) > flac 1.2.0a

01
02
03
04
05
06
07
08


Collection Bodega
Band/Artist Bodega
Venue Ropeadope Stage - Allgood Festival
Location Masontown WV

Source (DSBD + mbho 603a/ka200n > mp2) > t-mod edirol r4
Lineage vegas 6.0 (track alignment, rendering final mix to 24/48) > soundforge 8.0 (tracking, fades, resample, dither) > flac 1.2.0a
Taped by Peter W. King
Transferred by Peter W. King

Notes

length expanded size cdr WAVE problems fmt ratio filename
1:51.21 19629836 B --- -- ---xx flac 0.3654 bodega2008-07-11_matrix_t01.flac
8:34.38 90759020 B --- -- ---xx flac 0.5583 bodega2008-07-11_matrix_t02.flac
7:04.74 74967692 B --- -- ---xx flac 0.5716 bodega2008-07-11_matrix_t03.flac
10:48.31 114380156 B --- -- ---xx flac 0.5485 bodega2008-07-11_matrix_t04.flac
7:43.36 81757916 B --- -- ---xx flac 0.5798 bodega2008-07-11_matrix_t05.flac
9:30.24 100604492 B --- -- ---xx flac 0.5073 bodega2008-07-11_matrix_t06.flac
12:19.17 130399628 B --- -- ---xx flac 0.5299 bodega2008-07-11_matrix_t07.flac
11:37.20 122997884 B --- -- ---xx flac 0.5036 bodega2008-07-11_matrix_t08.flac
69:29.36 735496624 B 0.5342 (8 files)

Reviews

There are no reviews yet. Be the first one to write a review.
PEOPLE ALSO FOUND
Bodega
779
1
0
Source: (DSBD + mbho 603a/ka200n > mp2) > t-mod edirol r4
Porter Batiste Stoltz
by Porter Batiste Stoltz
223
1
0
Source: schoeps mk4v (ORTF, OTS) > vms02ib > busman t-mod edirol r4 (24/48)
Bonerama
by Bonerama
655
1
0
Source: mbho 603a/ka200n (cardioid, ORTF) > sound devices mp2 > t-mod edirol r4
The Brakes
by The Brakes
216
0
0
Source: mbho 603a/ka200n (cardioid, ORTF) > sound devices mp2 > busman t-mod edirol r4 (24/96)
Benevento/Russo
by Benevento/Russo
423
0
0
Source: mbho 603a/ka500hn (hyper, DINa) > sound devices mp2 > busman t-mod edirol r4 (24/96)
Hot Buttered Rum
by Hot Buttered Rum
925
1
1
( 1 reviews )
Source: mbho 603a/ka200n (card, ORTF) > mp2 > busman t-mod edirol r4 (24/96)
Basshound
by Basshound
389
2
0
Source: (DSBD + mbho 603a/ka200n > mp2) > t-mod edirol r4
Ryan Montbleau
by Ryan Montbleau
34
0
0
Source: Neumann U89i (subcard, NOS, -80h)> Lunatec V2> Apogee Minime> Tascam HD-P2 (16/44.1)
Billy Iuso and Restless Natives
by Billy Iuso and Restless Natives
259
2
0
Source: mbho 603a/ka100dk (omni, jecklin) > sound devices mp2 > busman t-mod edirol r4 (24/96)
Source: mbho 603a/ka200n (cardioid, ORTF) > sound devices mp2 > busman t-mod edirol r4 (24/96)